#TITLE:Tokyo Rebellion;
#SUBTITLE:;
#ARTIST:Destructo;
#TITLETRANSLIT:;
#SUBTITLETRANSLIT:;
#ARTISTTRANSLIT:;
#CREDIT:;
#BANNER:;
#BACKGROUND:;
#LYRICSPATH:;
#CDTITLE:;
#MUSIC:01-14 Destructo - Tokyo Rebellion.mp3;
#OFFSET:-2.080;
#SAMPLESTART:100.000;
#SAMPLELENGTH:12.000;
#SELECTABLE:YES;
#BPMS:0.000=116.000;
#STOPS:;
#BGCHANGES:0.000=Tokyo=1.000=0=0=1,
99999=-nosongbg-=1.000=0=0=0 // don't automatically add -songbackground-
;
// cache tags:
#FIRSTBEAT:0.000;
#LASTBEAT:404.000;
#SONGFILENAME:Songs/My Creations/01-14 Destructo - Tokyo Rebellion/01-14 Destructo - Tokyo Rebellion.sm;
#HASMUSIC:1;
#HASBANNER:0;
#MUSICLENGTH:209.841;
// end cache tags

//---------------dance-single - ----------------
#NOTES:
     dance-single:
     :
     Beginner:
     1:
     0.404,0.495,0.100,0.362,0.024,496.000,21.000,76.000,0.000,12.000:
1000
0000
1000
0000
1000
0000
1000
0200
,
1300
0000
1000
0000
1000
0000
1000
0200
,
1300
0000
1000
0000
1000
0000
1000
0200
,
1300
0100
1000
0000
1000
0000
1000
0200
,
1300
0100
1000
0000
1000
0000
1000
0200
,
1300
0000
1000
0000
1000
0000
1000
0200
,
1300
0000
1000
0000
1000
0000
1000
0200
,
1300
0000
0000
1000
0000
1000
0000
1000
,
1000
0000
1000
0000
1000
0000
1000
0200
,
1300
0000
1000
0000
1000
0000
1000
0200
,
1300
0000
1000
0000
1000
0000
1000
0200
,
1300
0100
1000
0000
1000
0000
1000
0200
,
1300
0100
1000
0000
1000
0000
1000
0200
,
1300
0000
1000
0000
1000
0000
1000
0200
,
1300
0000
1000
0000
1000
0000
1000
0200
,
1300
1000
1000
1001
,
1000
0000
1000
1000
0100
0010
0001
0010
,
0000
0010
0100
0010
0000
0000
1000
0000
,
1000
0000
1000
1000
0100
0010
0001
0010
,
0000
0010
0100
0010
0000
1000
0100
1000
,
1000
0000
1000
1000
0100
0010
0001
0010
,
0000
0010
0100
0010
0000
0000
1000
0000
,
1000
0000
1000
1000
0100
0010
0001
0010
,
0000
0010
0100
0010
0000
1000
0100
1000
,
2002
0000
3003
0000
1000
0000
1000
0200
,
1300
0000
1000
0000
1000
0000
1000
0200
,
1300
0000
1000
0000
1000
0000
1000
0200
,
1300
0100
1000
0000
1000
0000
1000
0200
,
1300
0100
1000
0000
1000
0000
1000
0200
,
1300
0000
1000
0000
1000
0000
1000
0200
,
1300
0000
1000
0000
1000
0000
1000
0200
,
1300
1000
1000
1001
,
2000
0000
0000
3000
2000
0000
0000
3000
,
2000
0000
0000
3000
2000
0000
0000
3000
,
2000
0000
0000
0000
0000
0000
0000
0200
,
3300
0100
1000
0000
1000
0000
1000
0200
,
1300
0100
1000
0000
1002
0000
1000
0203
,
1302
0000
1000
0003
1002
0000
1000
0203
,
1302
0000
1000
0000
1000
0000
1000
0203
,
1300
0000
0000
1000
0000
0000
1000
0000
0000
1000
0100
0000
,
1000
0000
0100
0000
0000
0000
0001
0000
0000
0001
0000
0000
0000
0000
0000
0000
0000
0000
0001
0000
0000
0001
0000
0000
,
0000
0000
0000
0000
0000
0000
0001
0000
0000
0001
0000
0000
0000
0000
0000
0000
0010
0000
0001
0000
0000
0001
0000
0000
,
0000
0000
0000
0000
0000
0000
1000
0000
0000
0100
0000
0000
1000
0000
0000
0000
0000
0000
1000
0000
0100
0000
0000
0000
,
1000
0000
0100
0000
0000
0000
0000
0000
0000
0001
0000
0000
0010
0000
0000
0200
0000
0000
0000
0000
0000
0300
0000
0000
,
1000
0000
0100
0000
0000
0000
1000
0000
0100
0000
0000
0000
0000
0000
0000
0000
0000
0000
1000
0000
0000
0100
0000
0000
,
1000
0000
0000
1000
1000
0000
0000
1000
,
1000
0100
0000
1000
1000
0000
0000
1000
,
1000
0100
0000
1000
1000
0000
0000
1000
,
1000
0100
0000
1000
1000
0000
0000
1000
,
1000
0000
0010
0100
2000
0001
0001
0000
,
0000
0001
0001
0000
0000
0001
0001
0000
,
0000
0001
0001
0000
0000
0001
0001
0000
,
3200
0000
0000
0000
0001
0010
0001
0000
,
0001
0010
0001
0000
0001
0010
0001
0000
,
0000
0000
0000
0000
0001
0010
0001
0000
,
0001
0010
0001
0000
0001
0010
0001
0000
,
0300
0000
0001
0010
0001
0000
0001
0010
,
0002
0000
0003
0000
,
1000
0000
1000
1000
0100
0010
0001
0010
,
0000
0010
0100
0010
0000
0000
1000
0000
,
1000
0000
1000
1000
0100
0010
0001
0010
,
0000
0010
0100
0010
0000
1000
0100
1000
,
2000
0000
0000
3000
2000
0000
0000
3020
,
2030
0000
0000
3000
2000
0000
0000
3020
,
2030
0000
0000
0000
0000
0000
0000
0020
,
3030
1000
0000
1000
0000
1000
0100
1000
,
1000
0000
1000
0000
1002
0000
1000
0203
,
1302
0000
1000
0003
1002
0000
1000
0203
,
1302
0000
1000
0000
1000
0000
1000
0200
,
1300
0100
1000
0000
1000
0000
1000
0200
,
1303
0100
1000
0000
1002
0000
1000
0203
,
1302
0000
1000
0003
1002
0000
1000
0203
,
1302
1000
1000
1000
,
1000
0000
1000
0000
1000
0000
1000
0203
,
1300
0000
1000
0000
1002
0000
1000
0203
,
1302
0000
0000
0003
0002
0000
1000
0203
,
1302
0000
0000
0000
0000
0000
1000
0200
,
1300
0100
1000
0000
0000
0000
1000
0200
,
1300
0100
1000
0003
0000
0000
1000
0200
,
1300
0000
1000
0000
1000
0000
1000
0200
,
1300
0000
1000
0000
1000
0000
1000
0200
,
1300
0000
0000
0000
0000
0000
1000
0000
0000
0000
0000
0000
1000
0000
0000
0000
0000
0000
0110
0000
0000
0110
0110
0000
,
1000
0100
0010
0000
0000
0000
0001
0000
0000
0000
0000
0000
,
0001
0001
0100
0100
0000
0100
0100
0100
,
0000
0100
0000
0100
0100
0100
0100
0000
,
0000
0000
0100
0100
0000
0100
0100
0100
,
0010
0100
1000
0100
0000
0000
0100
0000
,
0100
0100
0100
0100
0000
0100
0100
0100
,
0000
0000
0100
0100
0100
0000
0100
0100
,
0100
0000
0100
0100
0100
0100
0100
0100
,
0000
0100
1000
0100
0000
0000
0100
0000
,
0000
0000
0100
0100
0100
0000
0000
0000
,
0000
0100
0100
0100
0000
0100
0100
0200
,
0000
0000
0300
0000
,
1000
0100
1000
0100
1000
0100
1000
0100
,
0000
0100
1000
0100
0000
0100
1000
0100
,
0000
0100
1000
0100
0000
0100
1000
0100
,
1000
0100
1000
0100
1000
0100
1000
0100
,
0000
1000
0100
1000
0000
1000
0100
1000
,
0100
0000
0000
0000
;

//---------------dance-single - Copied from----------------
#NOTES:
     dance-single:
     Copied from:
     Hard:
     1:
     0.443,0.490,0.338,0.386,0.024,498.000,71.000,81.000,41.000,15.000:
1000
0000
0100
0000
1000
0000
0001
0200
,
0310
0000
1000
0000
0100
0000
0001
0020
,
1030
0000
0100
0000
0001
0000
0010
0200
,
1300
0010
0001
0000
0100
0000
1001
0200
,
0310
0001
0100
0000
1000
0000
0010
0002
,
0103
0000
0010
0000
1000
0000
0010
2000
,
3010
0000
0001
0000
0100
0000
0010
2000
,
3001
0000
0000
1010
0000
1000
0000
1010
,
1001
0000
0100
0000
1010
0000
0100
0020
,
1030
0000
0100
0000
0001
0000
1100
0002
,
0013
0000
1001
0000
1000
0000
0110
0020
,
1030
0100
0101
0000
0100
0000
1100
0020
,
0031
0001
1100
0000
0110
0000
0011
0020
,
1030
0000
0100
0000
0001
0000
0100
0020
,
0130
0000
1010
0000
0100
0000
0110
0200
,
0310
0010
1100
0101
,
1000
0000
1000
1M00
01M0
001M
00M1
0010
,
00M0
0M10
01M0
0010
0000
0000
0010
0000
,
0001
0000
1000
1M00
01M0
001M
00M1
0010
,
00M0
0M10
01M0
0010
M000
1M00
0100
0001
,
0001
0000
M010
1M00
01M0
001M
00M1
0010
,
00M0
0M10
01M0
0010
0000
0000
1100
0000
,
1100
0000
0001
1100
0100
0110
0001
0010
,
0000
0011
1100
0010
0000
1000
0100
1000
,
2002
0000
3003
0000
1001
0000
0100
0002
,
1003
0000
0100
0000
1001
0000
0100
0200
,
1300
0000
0010
0000
1001
0000
0010
0002
,
1003
0100
1001
0000
0100
0000
1001
0200
,
1301
0100
1001
0000
0110
0000
0110
0020
,
1030
0000
0101
0000
0101
0000
0110
0002
,
1003
0000
0011
0000
0011
0000
0110
0200
,
0301
1100
1100
1001
,
2000
0010
0000
3000
0200
0001
0000
0300
,
0020
1000
0000
0030
0002
0100
0000
0003
,
2020
0000
0000
0000
0000
0000
0030
0002
,
3003
0100
0010
0000
0100
0000
0010
0002
,
0103
0001
1000
0000
0102
0000
0010
0023
,
0132
0000
1000
0003
0102
0000
0010
0203
,
1302
0000
0100
0000
0010
0000
0100
2003
,
3000
0000
0000
1000
0000
0000
0110
0000
0000
0100
0100
0000
,
1000
0000
0100
0000
0000
0000
0010
0000
0000
0001
0000
0000
0000
0000
0000
0000
0000
0000
0100
0000
0000
0010
0000
0000
,
0000
0000
0000
0000
0000
0000
1000
0000
0000
0100
0000
0000
0000
0000
0000
0000
0010
0000
0100
0000
0000
0110
0000
0000
,
0000
0000
0000
0000
0000
0000
0001
0000
0000
0100
0000
0000
0001
0000
0000
0000
0000
0000
0010
0000
0100
0000
0000
0000
,
0010
0000
0100
0000
0000
0000
0000
0000
0000
0100
0000
0000
0010
0000
0000
0200
0000
0000
0000
0000
0000
0300
0000
0000
,
0100
0000
0010
0000
0000
0000
0100
0000
0010
0000
0000
0000
0000
0000
0000
0000
0000
0000
0001
0000
0000
0100
0000
0000
,
1000
0000
0000
0010
0100
0000
0000
0001
,
0001
0010
0000
0100
0100
0000
0000
0001
,
0001
0010
0000
0100
0100
0000
0000
1000
,
0100
0100
0000
1000
0001
0000
0000
0001
,
1000
0000
0010
0100
2000
0001
0001
0100
,
0000
0010
0010
0100
0000
0001
0001
0100
,
0000
0010
0010
0100
0000
0001
0001
0000
,
3202
0000
0000
0003
0001
1000
0010
0000
,
0001
0010
0001
0000
0001
1000
0010
0000
,
0000
0000
0000
0000
0010
1000
0010
0000
,
0010
1000
0001
0000
0001
1000
0001
0000
,
0000
0000
1000
0010
1000
0000
1300
0010
,
0002
0000
0003
0000
,
1000
0000
1000
1M00
01M0
001M
00M1
0010
,
00M0
0M10
01M0
0010
0000
M000
1000
0000
,
1000
0000
1000
1M00
01M0
001M
00M1
0010
,
00M0
0M10
01M0
0010
M000
1M00
0100
1000
,
2200
0000
0000
3300
2002
0000
0003
3020
,
0230
0000
0000
0300
0022
0000
0030
0023
,
0230
0000
0000
0000
0000
0000
0000
0020
,
0330
1000
0000
0010
0000
1000
0100
0001
,
1000
0000
0100
0000
1002
0000
0100
0203
,
1302
0000
0100
0003
1002
0000
0100
0203
,
1302
0000
0010
0000
1000
0000
0010
0200
,
1300
0100
0010
0000
1000
0000
0100
0200
,
1303
0100
0010
0000
1002
0000
0100
0203
,
1302
0000
0100
0003
1002
0000
0100
0203
,
1302
0100
1000
0010
,
1000
0000
0100
0000
1000
0000
0100
0200
,
1300
0000
0010
0003
1002
0000
0010
0203
,
1302
0000
0000
0003
0002
0000
0100
0203
,
1302
0000
0000
0000
0000
0000
0100
0200
,
1300
0100
0100
0000
0000
0000
0100
0200
,
1300
0100
1000
0003
0000
0000
0100
0200
,
1300
0000
1001
0000
1000
0000
0100
0200
,
1300
0000
1000
0000
1001
0000
0100
0200
,
1300
0000
0000
0000
0000
0000
0001
0000
0000
0000
0000
0000
1000
0000
0000
0000
0000
0000
0110
0000
0000
0110
0110
0000
,
1000
0100
0010
0000
0000
0000
1001
0000
0000
0000
0000
0000
,
0011
0001
1000
0100
0000
0100
0010
0100
,
0000
0100
0000
0100
0010
0100
0010
0000
,
0000
0000
0001
0001
0000
0001
1000
0001
,
0010
0001
1000
0001
0000
0000
0100
0000
,
0010
0100
1000
0100
0000
0100
0010
0100
,
0000
0000
0010
0001
1000
0000
0010
0001
,
0010
0000
1000
0001
0010
0001
1000
0001
,
0000
0001
1000
0001
0000
0000
0010
0000
,
0000
0000
0010
0010
0010
0000
0000
0000
,
0000
0100
0010
0100
0000
0100
0010
0002
,
0000
0000
0003
0000
,
1000
0100
1000
0100
1000
0100
1000
0100
,
0000
0010
0100
0010
0100
0010
0100
0010
,
0000
0010
0100
0010
0100
0100
1000
0100
,
1000
0100
1000
0100
1000
0100
1000
0100
;

//---------------dance-single - Copied from Copied f----------------
#NOTES:
     dance-single:
     Copied from Copied f:
     Challenge:
     1:
     0.566,0.560,0.777,0.510,0.038,561.000,163.000,107.000,93.000,10.000:
1000
0000
0110
0000
1010
0000
0101
0200
,
0310
0000
1100
0000
0101
0000
0011
0020
,
1030
0000
1100
0000
0101
0000
0011
0200
,
1300
0011
0001
0000
1100
0000
1001
0200
,
0310
0011
1100
0000
1010
0000
0110
0002
,
1103
0000
0110
0000
1010
0000
0011
2000
,
3110
0000
1001
0000
1100
0000
0110
2000
,
3002
0000
0003
1001
0000
1100
0000
0110
,
1001
1000
0100
0000
1010
0000
0100
0020
,
1030
1000
0110
0000
0001
0000
1100
0002
,
0013
1000
0101
0000
1100
0000
0110
0020
,
1030
1100
0101
0000
0011
0000
1100
0020
,
0031
0101
1100
0000
1010
0000
0011
0020
,
2030
0000
3100
0000
1002
0000
0103
0020
,
0130
1000
1010
0000
1100
0000
0101
0200
,
0310
0100
MM11
0000
11MM
0000
M1M1
0000
,
1MMM
1000
1000
1M00
M1M0
10M0
M010
1000
,
00M0
0M10
01MM
0011
0000
0000
1010
0100
,
0011
0000
1M00
1M00
1MM0
0M10
010M
0001
,
00M0
0M10
01MM
0011
M000
1MMM
0100
0001
,
0011
00M0
M010
1M00
M100
100M
0M01
0100
,
00M0
M010
100M
0001
0000
0000
1100
0011
,
1100
0000
0001
11MM
0100
M11M
0001
MM1M
,
0000
MM11
1100
0010
0000
1010
0100
1000
,
0202
0000
0303
0000
2001
0000
3200
0302
,
2003
0000
3200
0000
0302
1000
0103
0200
,
1300
0000
0110
0000
0101
0000
1010
0002
,
1003
0100
1001
0000
0100
0000
1100
0200
,
1301
0100
1010
0000
0101
0000
0110
0020
,
1030
0000
0011
1001
0001
1001
1010
0002
,
2003
3000
0001
0000
1001
0000
0110
0200
,
0301
0000
1010
1001
1100
1001
1001
0000
,
2010
0000
0001
3000
0210
0000
0001
2300
,
3021
0000
0100
0030
1002
0000
1000
0203
,
0320
0000
2000
0000
0000
0000
3030
0002
,
0003
0100
0010
0000
0100
0000
1010
0002
,
0103
1001
1000
0000
0202
0300
0010
0023
,
0032
0000
1000
0003
0202
0300
0010
0203
,
1302
0000
0100
0000
1010
0000
0100
2003
,
3000
0000
0000
1000
0000
0000
0110
0000
0000
0010
0100
0000
,
1000
0000
0100
0000
0000
0000
1000
0000
0000
0001
0000
0000
0010
0000
0000
0001
0000
0000
0100
0000
0000
0010
0000
0000
,
0000
0000
0000
0000
0000
0000
1000
0000
0000
0100
0010
0000
0001
0000
0001
0000
0010
0000
0100
0000
0000
1010
0000
0000
,
0010
0000
0000
0010
0000
0000
0001
0000
0000
1100
0000
0000
0001
0000
0000
0000
0000
0000
0010
0000
0100
0000
0000
0000
,
1001
0000
0100
0000
0000
0000
0000
0000
0000
0100
0000
0000
0002
0000
0000
0200
0000
0000
0000
0000
0000
0303
0000
0000
,
0100
0000
0010
0000
0000
0000
0100
0000
0010
0000
0000
0000
1000
0000
0000
0100
0000
0000
1001
0000
0000
0100
0000
0000
,
0010
0000
0000
0010
0100
0000
0000
0001
,
0001
0010
0000
0100
0100
0000
0010
0101
,
0001
0010
0000
0100
0100
0000
0010
1010
,
0100
0100
0100
1000
0101
0000
0010
0101
,
1000
0000
0011
0100
2000
0001
01M0
0100
,
0001
0010
001M
0100
0010
0001
00M1
0100
,
0100
0010
001M
0100
0010
0001
0M01
0000
,
3002
0000
0000
0003
0201
1000
0010
1000
,
0001
0010
0001
1000
0001
1000
0010
0000
,
1000
0010
1000
0001
0010
1000
0010
0001
,
0010
1000
0010
0001
0001
1000
0001
0010
,
0001
0000
0001
0010
1000
0000
1000
1000
,
0002
0000
0000
0000
0303
0000
1001
0110
,
1001
0000
1000
1M00
M1MM
MM1M
MMM1
MM1M
,
MMMM
MM1M
M1MM
MM1M
0000
M000
1100
0000
,
1010
0000
1001
1M00
0100
01MM
M0M1
1000
,
00M0
0M10
010M
0001
M000
1M00
010M
0010
,
1200
0000
1000
1300
2001
0001
0001
3020
,
0230
0000
1000
0300
2020
0000
0030
3020
,
0230
0010
0000
0010
0000
0010
0000
0320
,
0030
1001
0000
0110
0000
1001
0100
1001
,
1000
0000
0101
0000
1002
0010
0100
0203
,
1302
0000
0100
0013
1002
0000
0100
0203
,
1302
0100
0010
0100
1000
0000
0010
0200
,
1300
0100
0010
0100
0010
0000
0100
0200
,
1303
0100
0010
0000
0002
0003
0102
0203
,
0302
0003
1002
0003
0002
0003
0102
0203
,
0302
0000
1003
0002
0000
0003
0012
0000
,
0003
0002
0100
0003
0002
0000
1003
0202
,
0300
0003
0012
0000
0000
0000
0010
2003
,
3002
0000
0000
0003
0002
0000
0100
2003
,
3002
0000
0000
0000
0000
0000
1000
0200
,
0300
0010
0100
0000
0000
0000
0010
0020
,
0030
0100
1000
0003
0000
0000
0102
0203
,
1300
0000
1002
1000
1003
0000
0100
0200
,
1300
0001
2000
0000
3001
0001
0101
0200
,
1300
0000
0000
0000
0000
0000
0001
0000
0000
0100
0000
0000
1000
0000
0000
0000
0000
0000
0110
0000
0000
0110
0110
0000
,
1000
0100
0010
0100
0010
0100
1010
0100
0010
0100
0000
0000
,
0011
0001
1010
0100
0000
0011
0010
0100
,
0000
1100
0000
0100
0011
0100
0010
0000
,
0000
0000
0001
0011
0000
0011
1000
0011
,
0010
0011
1000
0011
0000
0000
0100
0000
,
0010
1100
1000
1100
0000
1100
0010
1100
,
0000
0000
0010
0101
1000
0000
0010
0101
,
0010
0000
1000
0101
0010
1001
1000
0101
,
0000
1001
1000
0101
0000
0000
0110
0000
,
0000
0000
2010
0010
3010
0000
0000
0000
,
0000
2100
0000
0100
0000
3100
0010
0022
,
0000
0000
0033
0000
,
1000
0100
1000
0010
1000
0010
1000
0100
,
0000
0010
0100
0010
0100
1000
0100
1000
,
0000
0010
0100
0010
0100
0100
1000
0100
,
1000
0010
1000
0010
1001
0100
1001
0100
;

//---------------dance-single - Copied from----------------
#NOTES:
     dance-single:
     Copied from:
     Medium:
     1:
     0.336,0.353,0.033,0.186,0.000,448.000,7.000,39.000,0.000,0.000:
0010
0000
0010
0000
0100
0000
0100
0200
,
0301
0000
0001
0000
0010
0000
0010
0200
,
1300
0000
1000
0000
0010
0000
0010
0200
,
1300
0100
1000
0000
0010
0000
0010
0200
,
1300
0100
0001
0000
0001
0000
0010
0200
,
0310
0000
1000
0000
1000
0000
0010
0200
,
0310
0000
0001
0000
0001
0000
1000
0200
,
1300
0000
0000
1000
0000
0100
0000
0010
,
1000
0000
0100
0000
1000
0000
0010
0200
,
1300
0000
0100
0000
1000
0000
0010
0200
,
1300
0000
0100
0000
1000
0000
0010
0200
,
1300
0100
0010
0000
1000
0000
0010
0200
,
1300
0100
0010
0000
1000
0000
0010
0200
,
1300
0000
0100
0000
1000
0000
0010
0200
,
1300
0000
0100
0000
1000
0000
0010
0200
,
1300
0100
1000
0010
,
1000
0000
1000
1000
0100
0010
0001
0010
,
0000
0010
0100
0010
0000
0000
0100
0000
,
0100
0000
0100
1000
0100
0010
0001
0010
,
0000
0010
0100
0010
0000
1000
0100
1000
,
0000
0000
1000
1000
0100
0010
0001
0010
,
0000
0010
0100
0010
0000
0000
0100
0000
,
0100
0000
0100
1000
0100
0010
0001
0010
,
0000
0010
0100
0010
0000
1000
0100
1000
,
2002
0000
3003
0000
1000
0000
0001
0010
,
1000
0000
0001
0000
1000
0000
0001
0010
,
1000
0000
0001
0000
1000
0000
0001
0010
,
1000
0010
0001
0000
1000
0000
0001
0010
,
1000
0010
0001
0000
1000
0000
0001
0010
,
1000
0000
0001
0000
1000
0000
0001
0010
,
1000
0000
0001
0000
1000
0000
0001
0010
,
1000
0001
1000
1001
,
2000
0000
0000
3000
0002
0000
0000
0003
,
2000
0000
0000
3000
0002
0000
0000
0003
,
2000
0000
0000
0000
,
3000
0100
1000
0000
0010
0000
1000
0100
,
0010
0100
1000
0000
1002
0000
0000
0100
,
1000
0000
0000
0003
1002
0000
0000
0100
,
1000
0000
0000
0000
1000
0000
0000
0103
,
1000
1000
0010
0010
,
0001
0000
0001
0010
0000
0000
0001
0010
,
0000
0000
0001
0010
0000
0000
0001
0010
,
0000
0000
1000
0100
1000
0000
1000
0000
,
0010
0000
0000
0001
0010
0200
0000
0300
,
1000
0000
1000
0000
0000
0000
1000
0100
,
1000
0000
0000
0001
0001
0000
0000
1000
,
1000
0010
0000
0001
0001
0000
0000
1000
,
1000
0010
0000
0001
0001
0000
0000
1000
,
1000
0010
0000
0001
0001
0000
0000
1000
,
1000
0000
0010
0100
2000
0001
0001
0000
,
0000
0010
0010
0000
0000
0001
0001
0000
,
0000
0010
0010
0000
0000
0001
0001
0000
,
3200
0000
0001
0000
,
0001
0000
0001
0000
,
0000
0000
0001
0000
,
0001
0000
0001
0000
,
0000
0000
0001
0000
0000
0000
0001
0010
,
0001
0000
0301
0000
,
1000
0000
1000
1000
0100
0010
0001
0010
,
0000
0010
0100
0010
0000
0000
0100
0000
,
0100
0000
1000
1000
0100
0010
0001
0010
,
0000
0010
0100
0010
0000
1000
0100
1000
,
2000
0000
0000
3000
0002
0000
0000
0003
,
2000
0000
0000
3000
0002
0000
0000
0003
,
2000
0000
0000
0000
0000
0000
0000
0010
,
3000
0001
0000
0001
0000
1000
0010
1000
,
1000
0000
1000
0000
1002
0000
1000
0100
,
0010
0000
0000
0003
0002
0000
0010
0100
,
1000
0000
1000
0000
1000
0000
1000
0100
,
0010
0100
0010
0000
0000
0000
0000
0000
,
0003
0100
1000
0000
0002
0000
1000
0100
,
0010
0000
0000
0003
0002
0000
0010
0100
,
1000
0000
1000
1000
,
0010
0000
0010
0000
0010
0000
0000
0103
,
1000
0000
1000
0000
1002
0000
1000
0103
,
0002
0000
0000
0003
0002
0000
0010
0103
,
0002
0000
0000
0000
0000
0000
0010
0100
,
0010
0100
0010
0000
0000
0000
1000
0100
,
1000
0100
1000
0003
0000
0000
1000
0100
,
1000
0000
0001
0000
0001
0000
1000
0100
,
1000
0000
0001
0000
0001
0000
1000
0100
,
1000
0000
0001
0000
0001
0000
0100
0100
,
0000
0000
0001
0000
,
0001
0001
0100
0100
0000
0010
0010
0010
,
0000
0100
0000
0010
0010
0010
0010
0000
,
0000
0000
0100
0100
0000
0010
0010
0010
,
0000
0100
0100
0100
0000
0000
0010
0000
,
0010
0010
0010
0010
0000
0100
0100
0100
,
0000
0000
0010
0010
0010
0000
0100
0100
,
0100
0000
0010
0010
0010
0010
0010
0010
,
0000
0010
0001
0010
0000
0000
0001
0000
,
0000
0000
0100
0100
0100
0000
0000
0000
,
0000
0010
0010
0010
0000
0100
0100
0100
,
0000
0100
0000
0100
,
0100
0100
0100
0100
,
0000
0010
0001
0010
0000
0100
1000
0100
,
0000
0010
0001
0010
0000
0100
1000
0100
,
0000
0010
0001
0010
0000
0100
1000
0100
,
0000
0001
0000
1000
0000
0001
0110
1000
;

//---------------dance-single - Copied from Copied f----------------
#NOTES:
     dance-single:
     Copied from Copied f:
     Easy:
     1:
     0.217,0.280,0.014,0.124,0.000,290.000,3.000,26.000,0.000,0.000:  // measure 1
1000
0000
1000
0000
1000
0000
1000
0100
,  // measure 2
0001
0000
0001
0000
0001
0000
0001
0010
,  // measure 3
1000
0000
1000
0000
1000
0000
1000
0010
,  // measure 4
1000
0010
1000
0000
0010
0000
0010
0100
,  // measure 5
0010
0100
0001
0000
0001
0000
0001
0010
,  // measure 6
1000
0000
1000
0000
1000
0000
1000
0100
,  // measure 7
0001
0000
0001
0000
0001
0000
0001
0010
,  // measure 8
1000
0000
1000
0000
,  // measure 9
0100
0000
0100
0000
0010
0000
0010
0100
,  // measure 10
1000
0000
1000
0000
0010
0000
0010
0100
,  // measure 11
0001
0000
0001
0000
1000
0000
1000
0100
,  // measure 12
1000
0100
0001
0000
0001
0000
1000
0100
,  // measure 13
1000
0100
0010
0000
0010
0000
1000
0100
,  // measure 14
1000
0000
0100
0000
0100
0000
0010
0100
,  // measure 15
0010
0000
0100
0000
0100
0000
0001
0010
,  // measure 16
0001
1000
1000
0010
,  // measure 17
0010
0000
0000
1000
0100
0010
0001
0000
,  // measure 18
0000
0010
0100
1000
0000
0000
0000
0000
,  // measure 19
0000
0000
0000
1000
0100
0010
0001
0000
,  // measure 20
0000
0010
0100
1000
0000
0000
0100
1000
,  // measure 21
0000
0000
0000
1000
0100
0010
0001
0000
,  // measure 22
0000
0010
0100
1000
0000
0000
0000
0000
,  // measure 23
0000
0000
0000
1000
0100
0010
0001
0000
,  // measure 24
0000
0010
0100
1000
0000
0000
0100
0000
,  // measure 25
1001
0000
1000
0000
0001
0000
0001
0010
,  // measure 26
1000
0000
1000
0000
0001
0000
0001
0010
,  // measure 27
1000
0000
1000
0000
0001
0000
0001
0010
,  // measure 28
1000
0010
1000
0000
0001
0000
0001
0010
,  // measure 29
1000
0010
1000
0000
0001
0000
0001
0010
,  // measure 30
1000
0000
1000
0000
0001
0000
0001
0010
,  // measure 31
1000
0000
1000
0000
0001
0000
0001
0010
,  // measure 32
1000
1000
0000
1001
,  // measure 33
2000
0000
0000
0000
0000
0000
0000
3000
,  // measure 34
0002
0000
0000
0000
0000
0000
0000
0003
,  // measure 35
2000
0000
0000
0000
,  // measure 36
3000
0000
1000
0000
1000
0000
1000
0100
,  // measure 37
0010
0100
1000
0000
1000
0000
0000
0100
,  // measure 38
1000
0000
0000
0000
0001
0000
0000
0100
,  // measure 39
1000
0000
0000
0000
0001
0000
0000
0100
,  // measure 40
1000
1000
0010
0010
,  // measure 41
0001
0001
0000
0001
,  // measure 42
0000
0001
0000
0001
,  // measure 43
0000
1000
1000
1000
,  // measure 44
0010
0000
0010
0100
,  // measure 45
0100
0100
0000
1000
,  // measure 46
1000
0000
0001
0000
,  // measure 47
1000
0000
0001
0000
,  // measure 48
1000
0000
0001
0000
,  // measure 49
1000
0000
0001
0000
,  // measure 50
1000
0010
2000
0000
,  // measure 51
0000
0000
0000
0000
,  // measure 52
0000
0000
0000
0000
,  // measure 53
3200
0000
0001
0000
,  // measure 54
0000
0000
0001
0000
,  // measure 55
0000
0000
0001
0000
,  // measure 56
0000
0000
0001
0000
,  // measure 57
0000
0000
0000
0001
,  // measure 58
0000
0000
0310
0000
,  // measure 59
0000
0000
0000
1000
0100
0010
0001
0000
,  // measure 60
0000
0010
0100
1000
0000
0000
1000
0000
,  // measure 61
1000
0000
0000
1000
0100
0010
0001
0000
,  // measure 62
0000
0010
0100
1000
0000
0000
0100
0000
,  // measure 63
2000
0000
0000
0000
0000
0000
0000
3000
,  // measure 64
2000
0000
0000
0000
0000
0000
0000
3000
,  // measure 65
2000
0000
0000
0000
,  // measure 66
3000
0000
0010
0010
,  // measure 67
1000
1000
0002
0000
,  // measure 68
0000
0000
0000
0003
0002
0000
0000
0000
,  // measure 69
0000
0000
0000
0000
,  // measure 70
0000
0000
0000
0000
,  // measure 71
0003
1000
0002
1000
,  // measure 72
0000
0000
0000
0003
0002
0000
0000
0000
,  // measure 73
1000
0000
0000
0000
,  // measure 74
0010
0000
0000
0000
0000
0000
0000
0003
,  // measure 75
1000
1000
1002
0000
,  // measure 76
0000
0000
0000
0003
0002
0000
0000
0003
,  // measure 77
0002
0000
0000
1000
,  // measure 78
0000
0000
0000
1000
,  // measure 79
0000
0000
0000
0003
0000
0000
1000
0000
,  // measure 80
1000
0001
0001
0100
,  // measure 81
0100
0010
0010
0100
,  // measure 82
0100
0001
0001
0100
,  // measure 83
0000
0000
1000
0000
,  // measure 84
0001
0100
0000
0010
,  // measure 85
0000
0000
0010
0010
,  // measure 86
0000
0100
0000
0010
,  // measure 87
0000
0100
0000
0010
,  // measure 88
0010
0010
0000
0100
,  // measure 89
0000
0010
0010
0200
,  // measure 90
0300
0020
0000
0030
,  // measure 91
0000
0001
0000
0001
,  // measure 92
0000
0200
0300
0000
,  // measure 93
0020
0000
0000
0030
0200
0000
0000
0300
,  // measure 94
0000
0100
0000
0100
,  // measure 95
0000
0010
0000
0100
,  // measure 96
0000
0002
0003
2000
,  // measure 97
3000
0002
0003
2000
,  // measure 98
3000
0002
0003
2000
,  // measure 99
3000
0000
0000
0000
;
